Jump to content


Photo
- - - - -

Back to Black to be re-released on BluRay High Fidelity Pure Audio


  • Please log in to reply
3 replies to this topic

#1 Cecilia

Cecilia

    What kind of fuckery is this?

  • Members
  • PipPipPipPipPip
  • 2,187 posts
  • LocationUK

Posted 08 October 2013 - 06:09 PM

Soon we'll be able to get the album in super-high-quality audio, no crappy compression! It'll be released on 21 october and can be pre-ordered now. One more for the collection :)

Posted Image
More info from the BBC: http://www.bbc.co.uk...t-arts-24441979

Pre-order in the UK from Universal (You can probably find it on other sites too, but I haven't bothered searching yet): http://store.univers...628<br /><br />

Edited by Cecilia, 08 October 2013 - 06:28 PM.

smoke.jpg?t=1397395921


#2 JackofHearts

JackofHearts

    I said, "No, No, No"

  • Members
  • PipPipPip
  • 144 posts

Posted 09 October 2013 - 08:51 PM

How do you listen to this? Like on a blu-ray player?

[SIGPIC][/SIGPIC]


#3 Cynthia

Cynthia

    Addicted to her

  • Members
  • PipPipPip
  • 671 posts

Posted 15 October 2013 - 07:19 AM

great news :encouragement:

How do you listen to this? Like on a blu-ray player?


Yes! The quality is much more better and i can't wait to listen to it!
I remember many people on Amazon complaining about that they didn't like the quality of the album cause it was compressed!
Amy flies in paradise




#4 MingusMonk&Amy

MingusMonk&Amy

    Advanced Member

  • Members
  • PipPipPip
  • 286 posts
  • LocationSweden

Posted 25 April 2019 - 08:14 PM

Sorry to resurrect this old thread, but this is release is the same crappy compressed mess as the CD. A pointless reissue. One of the worst mastering job ever done in the history of recorded music! :angry:

 

foobar2000 1.2.9 / Dynamic Range Meter 1.1.1
log date: 2013-11-18 07:43:11

--------------------------------------------------------------------------------
Analyzed: Amy Winehouse / Back To Black
--------------------------------------------------------------------------------

DR         Peak         RMS     Duration Track
--------------------------------------------------------------------------------
DR5       -0.10 dB    -5.86 dB      3:34 01-Rehab
DR5       -0.10 dB    -6.27 dB      4:18 02-You Know I'm No Good
DR6       -0.03 dB    -7.68 dB      2:32 03-Me & Mr Jones
DR7       -0.03 dB    -8.31 dB      3:11 04-Just Friends
DR5       -0.03 dB    -7.25 dB      4:01 05-Back To Black
DR6       -0.03 dB    -7.90 dB      2:35 06-Love Is A Losing Game
DR6       -0.08 dB    -6.57 dB      3:06 07-Tears Dry On Their Own
DR6       -0.03 dB    -7.14 dB      3:42 08-Wake Up Alone
DR7       -0.03 dB    -8.57 dB      2:23 09-Some Unholy War
DR6       -0.03 dB    -7.20 dB      2:46 10-He Can Only Hold Her
DR6       -0.03 dB    -7.10 dB      2:43 11-Addicted
--------------------------------------------------------------------------------

Number of tracks:  11
Official DR value: DR6

Samplerate:        96000 Hz
Channels:          2
Bits per sample:   24
Bitrate:           4608 kbps
Codec:             PCM
================================================================================


  • xDetachmentx likes this




0 user(s) are reading this topic

0 members, 0 guests, 0 anonymous users