Jump to content


Photo
- - - - -

[Close To The Front] Rehab (CD 2) .WAV Files

CD Download Rare

  • Please log in to reply
4 replies to this topic

#1 Fluffybear677

Fluffybear677

    Member

  • Members
  • PipPip
  • 27 posts

Posted 03 June 2020 - 12:40 AM

Ripped with (EAC) from rare Amy Winehouse CD in wav file formart

https://mega.nz/fold...UsNWt9BBZDHUxHA

Includes:
  • Rehab
  • Close To The Front
  • Rehab (Ded Remix)
Enjoy!!!

BTW I've bought a couple more rare Amy WInehouse CDs and will share them when I recieve them.

R.I.P. AMY WINEHOUSE

#BLACKLIVESMATTER

Attached Files


  • xjxcob and latoyaxu3 like this

#2 LuckyHorse

LuckyHorse

    Member

  • Members
  • PipPip
  • 84 posts

Posted 08 June 2020 - 11:35 AM

I'd like to report this, don't download, it's giving you virus! My computer froze and has now slowed down!!

#3 MingusMonk&Amy

MingusMonk&Amy

    Advanced Member

  • Moderators
  • 488 posts
  • LocationSweden

Posted 08 June 2020 - 06:33 PM

I'd like to report this, don't download, it's giving you virus! My computer froze and has now slowed down!!

 

I just examined these. I can't detect any problems other than the fact that it was ripped with wrong offset. It might be against forum rules to share this though...

It passes CTDB/accuraterip verification

[CTDB TOCID: smm40UOBvSmR8s4niK_KbtTKFHc-] found.
Track | CTDB Status
  1   | (10/10) Accurately ripped
  2   | (10/10) Accurately ripped
  3   | (10/10) Accurately ripped
[AccurateRip ID: 0001b7c8-0005d01a-1e031803] found.
Track   [  CRC   |   V2   ] Status
 01     [6b664204|9d154857] (00+00/10) No match
 02     [d2637c6e|616ff1cc] (00+00/11) No match
 03     [91ba6612|f537dc8d] (00+00/10) No match
Offsetted by 6:
 01     [f582a5b4] (03/10) Accurately ripped
 02     [a3164180] (03/11) Accurately ripped
 03     [d19a8820] (03/10) Accurately ripped
Offsetted by -640:
 01     [df920e04] (00/10) No match (V2 was not tested)
 02     [87e6b4ee] (00/11) No match (V2 was not tested)
 03     [49ac3592] (00/10) No match (V2 was not tested)

Track Peak [ CRC32  ] [W/O NULL]
 --  100,0 [34F0FCA2] [BD93FB44]           
 01  100,0 [415BDF8C] [F806A0AE]           
 02   98,9 [986088AA] [84A05F96]           
 03   98,9 [668E436F] [CBD5A6D4]

 

When I do bit-comparison against my own CD I get this result

Differences found in all track pairs, all became identical after applying offset and truncating first/last samples.

[...]

Comparing again with corrected offset...
Compared 13234698 samples, with offset of -6 discarding last/first samples from total of 13234704, discarded samples were silent in both files.
No differences in decoded data found within the compared range.
Channel peaks: 0.989319 (-0.09 dBTP) 0.989288 (-0.09 dBTP)



#4 Fluffybear677

Fluffybear677

    Member

  • Members
  • PipPip
  • 27 posts

Posted 09 June 2020 - 02:56 AM

I just examined these. I can't detect any problems other than the fact that it was ripped with wrong offset. It might be against forum rules to share this though...

It passes CTDB/accuraterip verification

 

When I do bit-comparison against my own CD I get this result

Im gonna reupload them using EAC, i used itunes for the original rips

 

I also added the EAC log



#5 xjxcob

xjxcob

    Member

  • Members
  • PipPip
  • 32 posts
  • Locationengland!

Posted 12 June 2020 - 03:50 PM

Ripped with (EAC)  from rare Amy Winehouse CD in wav file formart 

 

https://mega.nz/fold...OZ-_tdb9FGeMeIg

 

Includes:

 

  • Rehab
  • Close To The Front
  • Rehab (Ded Remix)

 

Enjoy!!!

 

BTW I've bought a couple more rare Amy WInehouse CDs and will share them when I recieve them.

 

R.I.P. AMY WINEHOUSE 

 

#BLACKLIVESMATTER 

thanks! been looking for close to the front in lossless for a while:)


but now i like to think out loud

you're running with some different crowd

we both know

what it is. 






Also tagged with one or more of these keywords: CD, Download, Rare

0 user(s) are reading this topic

0 members, 0 guests, 0 anonymous users