Jump to content


Photo
- - - - -

You know i'm no good - Glastonbury Pyramid.


  • Please log in to reply
9 replies to this topic

#1 AmyWinehouse9and14

AmyWinehouse9and14

    Member

  • Members
  • PipPip
  • 66 posts

Posted 28 February 2024 - 08:08 PM

This footage is poor but i've redone the audio.I have some good quality footage from some of the songs from this show that aren't on YT but they get blocked when I try and upload them.   


  • Gus√óWino, TakeTheBox03, amywinehouse.eus and 4 others like this

#2 AmyWinehouse9and14

AmyWinehouse9and14

    Member

  • Members
  • PipPip
  • 66 posts

Posted 28 February 2024 - 08:57 PM


  • amywinehouse.eus likes this

#3 AmyWinehouse9and14

AmyWinehouse9and14

    Member

  • Members
  • PipPip
  • 66 posts

Posted 28 February 2024 - 09:18 PM


  • amywinehouse.eus likes this

#4 AmyWinehouse9and14

AmyWinehouse9and14

    Member

  • Members
  • PipPip
  • 66 posts

Posted 29 February 2024 - 11:53 AM


  • amywinehouse.eus likes this

#5 AmyWinehouse9and14

AmyWinehouse9and14

    Member

  • Members
  • PipPip
  • 66 posts

Posted 29 February 2024 - 12:11 PM

I have footage of all songs in HD except F me pumps,Hey little rich girl,You know i'm no good and Me and Mr. Jones does anyone have these please in HD?   


  • amywinehouse.eus likes this

#6 loveAMYforever

loveAMYforever

    And Now, The Final Frame

  • Members
  • PipPipPip
  • 110 posts
  • LocationGermany

Posted 04 March 2024 - 12:00 PM

I have the concert complete in full HD, but can upload it ;--((



#7 Fierce

Fierce

    Play dirty.

  • Members
  • PipPipPip
  • 636 posts

Posted 04 March 2024 - 01:33 PM

 
Matroska: 4.20 GiB, 58mn 14s
1 Video stream: AVC
1 Audio stream: MPEG Audio (MP2)
 
Duration: 58mn 14s
Overall bit rate: 10.3 Mbps
Encoded date: UTC 2007-07-15 14:33:17
Writing application: mkvmerge v2.0.2 ('You're My Flame') built on Feb 21 2007 23:40:55
Writing library: libebml v0.7.7 + libmatroska v0.8.1
 
Video
ID                                       : 1
Format                                   : AVC
Format/Info                              : Advanced Video Codec
Format profile                           : Main@L5.1
Format settings                          : CABAC / 1 Ref Frames
Format settings, CABAC                   : Yes
Format settings, ReFrames                : 1 frame
Codec ID                                 : V_MPEG4/ISO/AVC
Duration                                 : 58mn 14s
Bit rate                                 : 10.1 Mbps
Width                                    : 1 280 pixels
Height                                   : 720 pixels
Display aspect ratio                     : 16:9
Frame rate mode                          : Constant
Frame rate                               : 25.000 fps
Color space                              : YUV
Chroma subsampling                       : 4:2:0
Bit depth                                : 8 bits
Scan type                                : Progressive
Bits/(Pixel*Frame)                       : 0.437
Stream size                              : 4.02 GiB (96%)
Writing library                          : x264 core 55 svn-663
Encoding settings                        : cabac=1 / ref=1 / deblock=1:0:0 / analyse=0x1:0x111 / me=hex / subme=5 / brdo=0 / mixed_ref=0 / me_range=16 / chroma_me=1 / trellis=0 / 8x8dct=0 / cqm=0 / deadzone=21,11 / chroma_qp_offset=0 / threads=2 / nr=0 / decimate=1 / mbaff=0 / bframes=0 / keyint=250 / keyint_min=25 / scenecut=40(pre) / rc=2pass / bitrate=10076 / ratetol=1.0 / rceq='blurCplx^(1-qComp)' / qcomp=0.60 / qpmin=10 / qpmax=51 / qpstep=4 / cplxblur=20.0 / qblur=0.5 / ip_ratio=1.40
Language                                 : English
Default                                  : Yes
Forced                                   : No
 
Audio
ID                                       : 2
Format                                   : MPEG Audio
Format version                           : Version 1
Format profile                           : Layer 2
Codec ID                                 : A_MPEG/L2
Codec ID/Hint                            : MP2
Duration                                 : 58mn 14s
Bit rate mode                            : Constant
Bit rate                                 : 256 Kbps
Channel(s)                               : 2 channels
Sampling rate                            : 48.0 KHz
Compression mode                         : Lossy
Stream size                              : 107 MiB (2%)
Language                                 : English
Default                                  : Yes
Forced                                   : No
 

 


  • TakeTheBox03 likes this

#8 TakeTheBox03

TakeTheBox03

    Simple Sweet Guitar, Humbled By The Bass

  • Moderators
  • 617 posts
  • LocationBirmingham, AL

Posted 04 March 2024 - 01:52 PM

 

 
Matroska: 4.20 GiB, 58mn 14s
1 Video stream: AVC
1 Audio stream: MPEG Audio (MP2)
 
Duration: 58mn 14s
Overall bit rate: 10.3 Mbps
Encoded date: UTC 2007-07-15 14:33:17
Writing application: mkvmerge v2.0.2 ('You're My Flame') built on Feb 21 2007 23:40:55
Writing library: libebml v0.7.7 + libmatroska v0.8.1
 
Video
ID                                       : 1
Format                                   : AVC
Format/Info                              : Advanced Video Codec
Format profile                           : Main@L5.1
Format settings                          : CABAC / 1 Ref Frames
Format settings, CABAC                   : Yes
Format settings, ReFrames                : 1 frame
Codec ID                                 : V_MPEG4/ISO/AVC
Duration                                 : 58mn 14s
Bit rate                                 : 10.1 Mbps
Width                                    : 1 280 pixels
Height                                   : 720 pixels
Display aspect ratio                     : 16:9
Frame rate mode                          : Constant
Frame rate                               : 25.000 fps
Color space                              : YUV
Chroma subsampling                       : 4:2:0
Bit depth                                : 8 bits
Scan type                                : Progressive
Bits/(Pixel*Frame)                       : 0.437
Stream size                              : 4.02 GiB (96%)
Writing library                          : x264 core 55 svn-663
Encoding settings                        : cabac=1 / ref=1 / deblock=1:0:0 / analyse=0x1:0x111 / me=hex / subme=5 / brdo=0 / mixed_ref=0 / me_range=16 / chroma_me=1 / trellis=0 / 8x8dct=0 / cqm=0 / deadzone=21,11 / chroma_qp_offset=0 / threads=2 / nr=0 / decimate=1 / mbaff=0 / bframes=0 / keyint=250 / keyint_min=25 / scenecut=40(pre) / rc=2pass / bitrate=10076 / ratetol=1.0 / rceq='blurCplx^(1-qComp)' / qcomp=0.60 / qpmin=10 / qpmax=51 / qpstep=4 / cplxblur=20.0 / qblur=0.5 / ip_ratio=1.40
Language                                 : English
Default                                  : Yes
Forced                                   : No
 
Audio
ID                                       : 2
Format                                   : MPEG Audio
Format version                           : Version 1
Format profile                           : Layer 2
Codec ID                                 : A_MPEG/L2
Codec ID/Hint                            : MP2
Duration                                 : 58mn 14s
Bit rate mode                            : Constant
Bit rate                                 : 256 Kbps
Channel(s)                               : 2 channels
Sampling rate                            : 48.0 KHz
Compression mode                         : Lossy
Stream size                              : 107 MiB (2%)
Language                                 : English
Default                                  : Yes
Forced                                   : No
 

 

THANKS FIERCE!!! all my loving goes to you <3


  • Fierce likes this

I was hit by a car once on my bike, but I still rode home. - AJW


#9 AmyWinehouse9and14

AmyWinehouse9and14

    Member

  • Members
  • PipPip
  • 66 posts

Posted 06 March 2024 - 09:06 PM

Better 


  • TakeTheBox03 likes this

#10 AmyWinehouse9and14

AmyWinehouse9and14

    Member

  • Members
  • PipPip
  • 66 posts

Posted 10 March 2024 - 02:46 PM


  • TakeTheBox03 likes this




0 user(s) are reading this topic

0 members, 0 guests, 0 anonymous users